50 (Glenn Miller/Modernaires style) Big Band with Vocal group (2 female & 3 male) - 1st Alto doubles Clarinet, Baritone doubles Alto. These different choices are all examples of diction. binds - List all current keybinds. In the client, commands are entered via the chat window, which is displayed by pressing the T key (default) or, in Java Edition, / key. Here is what those commands do: #thisway will set the goal to distance in the direction you're looking at. The Sound of a Leader: CEOs With Deep Voices Do Better Why your voice pitch could determine your success in business and politics. * * Baritone is free software: you can redistribute it and/or modify * it under the terms of the GNU Lesser General Public License as published by. There is this program called Baritone that is basically a bot that does stuff for you. Once you have Baritone running and are in the game, you can explore the commands by typing in chat: #help. com/cabaletta/baritone with Fabric support used by Aristois. 4 points · 1 year ago. The writer behind. Here was a Don Giovanni who was unquestionably the star of this Mozartean operatic domain. 2 seeing as modding is stuck in old MC I refuse to use mods. Adios Muchachos. Mexican-American bass-baritone, Richard Ollarsaba, praised by The Washington Post for his “meltingly smooth bass-baritone” and for “evoking a young Ruggero Raimondi in looks and manner," represented the USA in the 2019 BBC Cardiff Singer of the World competition, was a member of the prestigious Ryan Opera Center at Lyric Opera of Chicago for three seasons, and a grand finalist in the. For example, //outset -v 5 will expand your selection vertically (both up and down) 5 blocks each, while //inset -h 5 will contract your selection horizontally (north, west, south, and east) 5. What is the term for a man who possesses both the high range of a woman's voice and the physical power of a man's voice? A. Moved to https://gitlab. This all happens automatically, meaning your only job is to kill all of the chickens in the lower area, partially to gain some experience and partially to keep your game from lagging to heck. He would remain “the temporary guy” from 1973 to the groups disbandment after Sumner’s death in 1998. After she admits that her father is dead, Goro tells Pinkerton that he committed ritual suicide at the Mikado's command. View listing photos, review sales history, and use our detailed real estate filters to find the perfect place. Alesis Command Mesh Kit Electronic Drum Kit Features All tightly-woven mesh drum heads for superior playing response (3) 8" dual-zone mesh toms, and 8" mesh kick pad, and a 10" dual-zone mesh snare drum. It is essentially an expansion. With his trademark raspy baritone and majestic command of R&B, recent years have seen him collaborate with Gorillaz, adding some dubstep melodies to his heartfelt persuasions. If you want to put an extra chord in your progression to change it up, pick from one of these. After selecting an area using the sel command stuff, a user could: #sel farm or #sel mine iron_ore 64, basically any of the normal commands This would help for pepole who want to automate a task, like farming, without the bot going over to some random dipshit's farm, instead of your own farm. 2 % Extraction speed 1. Log into Minecraft and click on "Options" on the main screen. Those who depend on the Google-owned Waze to get from A to B can now specify guidance prompts in Freeman's smooth baritone, would inspire trust in the commands issuing from the app. Fork of https://github. Fortunately we discovered an easy way to disable chat, while still allowing access to the command line for entering Minecraft commands! To disable chat on Minecraft, follow these steps: 1. One has 144 of the most common chord types in all 12 keys and a smaller version of 132 chords. put all the diamond minions you can near that gap. Founded by and for industry professionals in 1977, Full Compass has remained committed to making a full assortment of professional audio, video, lighting and musical instruments accessible and affordable to customers nationwide. 2 builds and later. To use Baritone, use the ;b command. ] Doss revealed a sturdy, sizable bass voice and used it with considerable force and imagination. Last week Bonnie de la Hunty staged Handel from the House it had been at her childhood house in Perth's suburban Arabian Desert, channelling enchanting. The free Concert with Conversation series features world-class musicians performing in the CMC concert hall. All Chords in Key This section shows you all of the standard chords in the key you've chosen. Otello is at once a summing up—Falstaff, yet to come, charted different territory—crystallizing all Verdi had learned in nearly fifty years spent in the opera house, and also a work of unexpected vitality and vision. Bruno Ganz and Kirill Gerstein almost rescue Strauss’s Enoch Arden. A Pretty Girl Is Like A Melody. If there were ever a Home Video paying a tribute to Amitabh Bachchan’s baritone. He would remain “the temporary guy” from 1973 to the groups disbandment after Sumner’s death in 1998. Baritone BC: Baritone Bass Clef: Baritone Bass Clef: Baritone Bass Clef: Trombone 1: Commands; Pyware; Other Info; Upcoming Events. Command or perform staff duties in organizations encompassing a broad understanding of combat arms doctrine, training, utilization and possesses skills and experience in a combat arms branch of infantry, armor, field artillery, or engineer. Spotify controls that live in your menubar. WETA is the leading public broadcasting station in the nation’s capital and serves our community with educational, cultural, news and public affairs programs and services. Packages ; Package Description; baritone. Butterfly's relatives arrive, and the wedding proceeds. There is this program called Baritone that is basically a bot that does stuff for you. If you still cannot find the mod that you are looking for, make sure to leave a suggestion in our Discord. Now go where you want to place the schematic and paste it with the command "//paste". " "He was clear, moved through timbres without notice, and maneuvered through Bach's florid lines as if he were taking a stroll. If you want to put an extra chord in your progression to change it up, pick from one of these. 2 seeing as modding is stuck in old MC I refuse to use mods. eRadio Mirchi and MyFM. ” Second Officer Stoln nodded from the center chair while calling up a display to monitor the procedure. Note that you can scroll in the tabs of the GUI. 216 is available to all software users as a free download for Windows 10 PCs but also without a hitch on Windows 7 and Windows 8. It's an interesting horn, with palm keys like a giant early Mark VI soprano, and a thumb octave lever with a leaf spring that is the biggest saxophone spring in history. ♪ CONCENTRATE ON SOLID WOOD UKULELE – Caramel 30 inch Baritone Ukeleles are made of ALL SOLID Mahogany wood,which offer the ukulele better sustain, more stable sound and pure tone,also achieve better resonance. The hack was …. Over in Europe Democracy Advancing Up Chickamauga Hill Aggie's Song Oh Heart of Love Captain Valentine's Song The Sergeant's Chant The West-Pointer's Song Song of the Goddess Song of the Wounded Frenchmen The Tea Song Oh the Rio Grande Johnny's Dream Song of the Guns Mon Ami, My Friend The Allied High Command The Dance of the Generals. In all cases, Photoshop tries to keep at least some piece of the pasted layers visible in the destination document, so that you can reposition it as desired. Hi, I have no idea, so the traffic on that list seems rather high (~1000 posts/day). A baritone vocalist can sing the lower pitches in the Tenor range, but not the higher pitches. auth - Generates a 6-digit auth code (for donors to log in). Order today. Baritone C. Baritone definition is - a male singing voice of medium compass between bass and tenor; also : a person having this voice. This plugin can quickly detect the most common forms of hacking and cheats, such as KillAura or Speed. Load it in the game with the command "//schem load mcedit filename", where "filename" is the file name without the. One has 144 of the most common chord types in all 12 keys and a smaller version of 132 chords. With Terry Snyder (drummer extraordinaire with Paul Whiteman, Tommy Dorsey and Benny Goodman) and the All-Stars, Light recorded a series of LP albums (the Persuasive Percussion releases) that raised the bar for modern stereo recording. Praised for his rich tone and powerfully thrilling voice, bass-baritone Dashon Burton has proven himself …. If there is another client that can achieve this that would also work. Added a locatebiome command; Commands locatebiome. The guitar is a Halo MERUS 6-string baritone guitar with Bare Knuckle Juggernaut pickups. put all the diamond minions you can near that gap. Libretto D. com/cabaletta/baritone with Fabric support used by Aristois. Welcome to Full Compass Systems, your Pro Audio, Video, Lighting and Musical Instrument experts. In Minecraft, there are cheats and game commands that you can use to change game modes, time, weather, summon mobs or objects, or find the seed used by the World Generator. After selecting an area using the sel command stuff, a user could: #sel farm or #sel mine iron_ore 64, basically any of the normal commands This would help for pepole who want to automate a task, like farming, without the bot going over to some random dipshit's farm, instead of your own farm. All fields are required. Olds N-A30 Marching Baritone was created in the 1970s. It was a difficult balance to achieve, knowing that to fail meant deportation or perhaps death. Useful in creative mode when you’re looking for a specific biome and don’t want to fly around randomly searching for it. The following musicians were all involved to some extent with the Third Reich. Here is a list of the percussion instruments assigned to each MIDI note number when using General MIDI Channel 10 (Note these values are offset from 0 rather than 1, so that #60 below is the key for middle-C):. Bee Gee Barry Gibb speaks of his regret at arguing with brother Robin until his death, saying: "If there's conflict in. These commands depend on the exact mailing-list managing program but most have these options. Once you have Baritone running and are in the game, you can explore the commands by typing in chat: #help. Double-arm keys Dual arms prevent larger key cups from twisting or flexing under pressure and also improve durability. help IRC: # to talk in the IRC Keybind:. I tried using World Edit to set a block to a command block, which worked. Must be specified if in a command block. Spotify controls that live in your menubar. What is it? The IRC (Internet Relay Chat) is a server-independent chat integrated into Aristois. I would love to see this as a datapack in current minecraft 1. behavior : baritone. The three principle roles were all well cast. All Chords in Key This section shows you all of the standard chords in the key you've chosen. With Robert Barclay, James Doohan, Harry Geldard, Andrew Anthony. Obituary: Thomas Hemsley CBE, baritone Born: 12 April, 1927, in Leicestershire. It was a difficult balance to achieve, knowing that to fail meant deportation or perhaps death. He was in formidable company where br. Flute, wind instrument in which the sound is produced by a stream of air directed against a sharp edge, upon which the air breaks up into eddies that alternate regularly above and below the edge, setting into vibration the air enclosed in the flute. For example: the new. 0 will be launching next weekend at exactly: Friday 4th September, 3pm MST. Multiplayer. Sonorous definition is - producing sound (as when struck). All performances are free and open to the public. Baritone Roderick Williams seems to have been a pretty constant ‘companion’, on my laptop screen and through my stereo speakers, during the past few ‘lock-down’ months. auth – Generates a 6-digit auth code (for donors to log in). If you want to expand or contract in all directions at once (or just horizontal or vertical directions), you can use the //outset and //inset commands. Educational videos you won’t be embarrassed to show your students. Boulder Creek Riptide Ukulele Acoustic-Electric Baritone all Mahogany Twin Port construction for - Compare prices of 3442 products in Musical Instruments from 53 Online Stores in Australia. Flute, wind instrument in which the sound is produced by a stream of air directed against a sharp edge, upon which the air breaks up into eddies that alternate regularly above and below the edge, setting into vibration the air enclosed in the flute. All your doing is mirroring everything you build on one side to the other. The list of features and modules can be found here. View listing photos, review sales history, and use our detailed real estate filters to find the perfect place. If true, parkour is allowed to make jumps when standing on blocks at the maximum height, so player feet is y=256. There are 3 saxophone sizes in common use today, Alto in Eb, tenor in Bb, and baritone in Eb. Mar 09, 2013 · Also try the command in your console and in a command block as well as just a user command. A Pretty Girl Is Like A Melody. 9 % Test CRC DFF5C8EE Copy CRC DFF5C8EE Accurately ripped (confidence 4) [43339D38] (AR v2) Copy OK All tracks accurately ripped No errors occurred End of status report. Nova Skin Gallery - Minecraft Skins from NovaSkin Editor. Flute, wind instrument in which the sound is produced by a stream of air directed against a sharp edge, upon which the air breaks up into eddies that alternate regularly above and below the edge, setting into vibration the air enclosed in the flute. These commands depend on the exact mailing-list managing program but most have these options. Baritone : The T-800 of Minecraft Pathfinding and Automated Building Is this a mod or a command block? level 2. The record is sealed and in great shape!. This is standard practice on baritone ukulele, however all baritones sound better when played solo if you tune them up two or three half steps. Whenever possible, winners are given the opportunity of staging with the Morriston Orpheus Choir. The list of features and modules can be found here. Released by Fresh Sound Records. Added a legal disclaimer when clicking the multiplayer button from the main menu: a new information screen informs the player that "Online play is not rated". 2nd Horn Maggi Jones. Original Poster 20 points · 1 year ago. Bruno Ganz and Kirill Gerstein almost rescue Strauss’s Enoch Arden. The Impact client is an advanced utility mod for Minecraft, it is packaged with Baritone and includes a large number of useful mods. The smaller version is available as an image or PDF download that you can use as a pocket poster / cheat sheet for. Click "Multiplayer Settings" and then move all the sliders to the far left. Armed Forces Bicentennial Band, which he directed until retiring in 1977. Being obedient to your vision requires you to listen for instructions and move on what God has said to you by FAITH. Load it in the game with the command "//schem load mcedit filename", where "filename" is the file name without the. For example, you could type @thisway 1000 into the chat, followed by @path. All singers By alphabet Search singers Soprano singers Mezzo soprano singers Contralto singers Tenor singers Countertenor singers Baritone singers Bass singers Bass-Baritone singers Libretto List All operas By alphabet Search operas Italian operas German operas French operas English operas Russian operas. Simply put, baritone is the range between Tenor and Bass. I can run a command that summons the bot so my players can practice against something that isn't a player. 50 (Glenn Miller/Modernaires style) Big Band with Vocal group (2 female & 3 male) - 1st Alto doubles Clarinet, Baritone doubles Alto. ’ He earned top marks in all. " "He was clear, moved through timbres without notice, and maneuvered through Bach's florid lines as if he were taking a stroll. David Cushing, as Donald, sang with a strong, cavernous voice. Baritone Peter Edge has beautifully rich, ringing tones, admirably employed with a perfect command of Italian in a fine display of comedy, irony and drama in ‘Se vuol ballare’ (Le nozze di Figaro). Mr Baritone is yet to break his maiden status, having not won a race yet from 24 attempts. damage - Harms yourself in survival. ; Changes [] Blocks [] Saplings. * This file is part of Baritone. Click on the "Install" button, wait for the install and first run. Visit product Kala KA-B Mahogany Baritone Ukulele. Stefan specializes in lyric baritone roles and is known for his rich and flexible voice and engaging stage presence. Allow Baritone to move items in your inventory to your hotbar. wav Pre-gap length 0:00:00. Sonorous definition is - producing sound (as when struck). There’s a joke, an argument, a chase, a spaceship battle, or a brutal close-quarters firefight every five minutes, but all. Added a locatebiome command; Commands locatebiome. The Impact client is an advanced utility mod for Minecraft, it is packaged with Baritone and includes a large number of useful mods. View Daniel Rudge’s profile on LinkedIn, the world's largest professional community. 1st Baritone Ty Watson. 3: make a one block gap at the end of the row of ores. “Nathan Gunn commands an operatic baritone whose mighty heft and richness confer an outsize authority on everything he touches. " "He was clear, moved through timbres without notice, and maneuvered through Bach's florid lines as if he were taking a stroll. would anyone have the list of commands that can do baritone. Using the / key also enters the forward-slash that commands require as a prefix, so it is a useful shortcut. Discounts will vary from 10-70% off of retail prices. Our ‘laundry list’ of excuses are just that, a list that ‘we’ have compiled together. Butterfly's relatives arrive, and the wedding proceeds. While that is obviously not our goal (hey, we like selling basses, too!), it does show what a vital role a well-placed baritone can play. Baritone Peter Edge has beautifully rich, ringing tones, admirably employed with a perfect command of Italian in a fine display of comedy, irony and drama in ‘Se vuol ballare’ (Le nozze di Figaro). cbook - Used for book duping in 1. Part of ESP Shader GLSL code : Impact Client Devs. Double-arm keys Dual arms prevent larger key cups from twisting or flexing under pressure and also improve durability. 2 - watch how to use Auto Miner Minecraft mod or Review Baritone 1. Commands are used through chat, use ;commands for a list of commands. ] Doss revealed a sturdy, sizable bass voice and used it with considerable force and imagination. “We’re ready to begin the system maintenance sweep at your command. Listen to the clean singing at the start of the Black Sabbath track 'The Sign of the Southern Cross' to hear this, and also his modulation into a raspier, edgy full voice technique:. Mark Stone as Captain Balstrode kept the night on an even keel with his rugged baritone. Quartet parts are included for two trumpets, trombone (or baritone in either clef, or horn) and baritone (in either clef. org/people/people. He regularly appeared in South America, Spain, England, Russia, Germania and Austria. Nova Skin Gallery - Minecraft Skins from NovaSkin Editor. The play’s protagonist and hero. Opera News described Stefan Gordon as notable among a cast of young, talented singers in his 2009 production of Jerome Kern's the Cabaret Girl. Sharp provides medical services in virtually all fields of medicine, including primary care, heart care, cancer treatment, orthopedics and women’s health. Command Blocks are a redstone component that execute console commands when powered. If there were ever a Home Video paying a tribute to Amitabh Bachchan’s baritone. Baritone : Leijurv. English baritone Mark Stone was a strong vocal and dramatic presence as Captain Balstrode. The following commands are restricted to multiplayer servers: /ban, /ban-ip, /banlist, /deop, /kick, /list, /op, /pardon, /pardon-ip, /save-all, /save-off, /save-on, /setidletimeout, /stop, /whitelist. May 23, 2020, 6:07am #2. Mods, Maps, Texture Packs, Seeds. # This file is distributed. Allow Baritone to move items in your inventory to your hotbar. Nevertheless, its my opinion, and I hope it will be a great conversation starter among all of us. (day ploo brie-ont ex-plois) God keep our land glorious and free O Canada, we stand on guard for. Mr Baritone is yet to break his maiden status, having not won a race yet from 24 attempts. Simply put, baritone is the range between Tenor and Bass. There is no scenario in which having an incorrect cache can cause Baritone to get stuck, take damage, or perform any action it wouldn't otherwise, everything is rechecked once the real chunk is in range. I can run a command that summons the bot so my players can practice against something that isn't a player. DURGA 4 Baritone Mouthpiece; Accessories. The New Zealand Baritone, Phillip Rhodes, made a particularly strong impression as the angry Anckarstrom; and the confrontation with Amelia in the opening scene of Act III was, perhaps, vocally and emotionally the highpoint of the opera. 2 - watch how to use Auto Miner Minecraft mod or Review Baritone 1. One more option for your online shopping. It is only a bot. # This file is distributed. Hi, I have no idea, so the traffic on that list seems rather high (~1000 posts/day). Slim and elegant in stylish black leather, Polegato both sang and acted his role to a fare-thee-well, projecting the Don as an indefatigable and ruthless predator, and at the same time. David Cushing, as Donald, sang with a strong, cavernous voice. After Hill disbanded the group, he joined J. " Prototype instruments in soprano, piccolo soprano, mellophone, and baritone voices were produced. He subsequently appeared as Klingsor (Parsifal) at the Beijing Music Festival before joining an all-star cast at Semperoper Dresden for his first Heerrufer (Lohengrin), conducted by Christian Thielemann and. It allows users to chat across all minecraft servers. Multiplayer. Added a legal disclaimer when clicking the multiplayer button from the main menu: a new information screen informs the player that "Online play is not rated". In any case, if you have even been using cheat clients for a game for a long time, then this. Double-arm keys Dual arms prevent larger key cups from twisting or flexing under pressure and also improve durability. put all the diamond minions you can near that gap. 1st Baritone Ty Watson. Baritone is one of the male vocal ranges/parts. The Cigar Cutter baritone won't have the "cigar cutter" octave mechanism that gave the Selmers of this era their name. 4 points · 1 year ago. If there were ever a Home Video paying a tribute to Amitabh Bachchan’s baritone. Here are the commands that I use the most: #thisway #goal #path #mine diamond_ore. Can be installed as a forge mod or as a library. All the members would go on, the most notable of them being Ed Hill. Once you have Baritone running and are in the game, you can explore the commands by typing in chat: #help. The singing and acting, however, were of a high standard. Gives an achievement or +1 value to a statistic to [player]. auth - Generates a 6-digit auth code (for donors to log in). Underground Overhaul 1. This all happens automatically, meaning your only job is to kill all of the chickens in the lower area, partially to gain some experience and partially to keep your game from lagging to heck. The following musicians were all involved to some extent with the Third Reich. The Soul Stirrers, Category: Artist, Albums: God Is Standing By (Remastered), The New Soul Stirrers, A Soul Stirring Reunion, I'd Trade A Lifetime, The Lord Will Make A Way, Singles: Little Red Shoes, Top Tracks: I'll Come Running Back To You, Touch The Hem Of His Garment, Lovable, That's All I Need To Know, Wade In The Water, Biography: Indisputably among the premier gospel groups of the. The Sound of a Leader: CEOs With Deep Voices Do Better Why your voice pitch could determine your success in business and politics. 1st Trombone Bill Way. Order today. The festivities are interrupted as the Bonze, Butterfly's uncle and a Buddhist priest, enters to denounce her for forsaking their ancestral religion. A rack with all the tone combos to re create George Harrisons tone with the Beatles between 68 and 70. org/people/people. In all, Hemsley made five appearances at the Festival. You can view a list of past and upcoming changes here. This is a full–mahogany body build ukulele with great, simplistic aesthetics as well as beyond–impressive performances. “ For Scharfman, a baritone from Boston, the [job] was to sing big, dramatic arias of seduction and threats while lurking about like the villain in ‘The Drunkard. Once you select a version, hit escape and join a server for the version you selected. 2 or an earlier version and you can stay AFK mining those ores. b goto x z, for more questions related to Baritone, please visit their GitHub. Big Band with Vocal group (2 female & 3 male) - 1st Alto doubles Clarinet, Baritone doubles Alto. Allow Baritone to move items in your inventory to your hotbar. We would like to show you a description here but the site won't allow us. All of this mounts to a premium 4-post chrome rack with non-slip clamps, providing a durable foundation that is easy to set up and move. Updated often with the best Minecraft mods. ♪ CONCENTRATE ON SOLID WOOD UKULELE – Caramel 30 inch Baritone Ukeleles are made of ALL SOLID Mahogany wood,which offer the ukulele better sustain, more stable sound and pure tone,also achieve better resonance. If you can't see all the mods check your GUI Scale; You can change the GUI Scale by pressing + or - You can write in IRC with a # Example: # Hello World! -> Output : [IRC] Example: Hello World! You write commands without the "#" ! IRC is a Global Chat available only in the Aristois Client! You can get kicked or even banned from it!. It's a mod. Porgy and Bess - opera by George Gershwin, Ira Gershwin and DuBose Heyward - was premiered in Boston in 1935 with Anne Brown and Todd Duncan, Alexander Smallens conducting, and the definitive version was premiered in New York, from there it gradually conquered the world. Underground Overhaul 1. binds - List all current keybinds. and read data. Joshua Kosman, Chronicle Music Critic The Faure songs benefited from Gilfry's strong command of the language. Click on the "Install" button, wait for the install and first run. A baritone saxophone you'll love playing for years. Here are the commands that I use the most: #thisway #goal #path #mine diamond_ore. Melodramas can be a difficult genre for composers. 2 seeing as modding is stuck in old MC I refuse to use mods. To use Baritone, use the ;b command. By using the command ;prefix Enable option q! Quit, discard changes set no Disable option r Read in file set all Show all options sh Invoke shell vi Vi mode wq Write and quit w Write file w! Overwrite file Options:. Proudly built with Vessels. It is in no way a hacked client because it doesn't modify or give advantages in-game. By clicking subscribe you are agreeing to receiving email communication from Sharp Electronics regarding Sharp consumer products. The following discussion refers entirely to the notes as written, and therefore applies equally to all members of the saxophone family. It's a mod. binds – List all current keybinds. The New Zealand Baritone, Phillip Rhodes, made a particularly strong impression as the angry Anckarstrom; and the confrontation with Amelia in the opening scene of Act III was, perhaps, vocally and emotionally the highpoint of the opera. 4 points · 1 year ago. com/cabaletta/baritone with Fabric support used by Aristois. The following musicians were all involved to some extent with the Third Reich. If there is another client that can achieve this that would also work. Spotify controls that live in your menubar. I'd really appreciate it if someone will take this at some point. Try playing the Let it Be solo with. help IRC: # to talk in the IRC Keybind:. ” Born in 1877 in Pisa as Ruffo Cafiero Titta, he was renowned for his magnificent, hall-filling power and dramatic presence. For example, //outset -v 5 will expand your selection vertically (both up and down) 5 blocks each, while //inset -h 5 will contract your selection horizontally (north, west, south, and east) 5. The writer behind. This all happens automatically, meaning your only job is to kill all of the chickens in the lower area, partially to gain some experience and partially to keep your game from lagging to heck. This is a full–mahogany body build ukulele with great, simplistic aesthetics as well as beyond–impressive performances. There is no scenario in which having an incorrect cache can cause Baritone to get stuck, take damage, or perform any action it wouldn't otherwise, everything is rechecked once the real chunk is in range. Artur Rucinski is a musically-engaging baritone, but he’s fatally miscast as. If there is another client that can achieve this that would also work. schematic extension. The top of it is crafted from solid mahogany while its sides and back also feature mahogany to keep up the unitary coloured look. There are 3 saxophone sizes in common use today, Alto in Eb, tenor in Bb, and baritone in Eb. His extraordinary command of the instrument, blistering technique and interpretive power of his own works and of works of other composers is what made him such an. Mar 09, 2013 · Also try the command in your console and in a command block as well as just a user command. English baritone Mark Stone was a strong vocal and dramatic presence as Captain Balstrode. 2; Of all the available, this hacked client is the most accessible and easiest for any player who wants to start using cheats in Minecraft. Adios Muchachos. Gingrich, KC Metropolis, May 2014. Compress, rotate, resize, add text & watermarks to any file. There are no currently. For example: the new. Space Command was a Canadian children's science fiction television adventure series, broadcast on CBC Television from 13 March 1953 till 29 May 1954, the first time the network aired its own dramatic series. Each short concert is followed by a Q & A session, where the audience can learn about the lives, hard-work, and inspiration of these artists. Melodramas can be a difficult genre for composers. David Cushing, as Donald, sang with a strong, cavernous voice. Moved to https://gitlab. com/CDAGaming/fabritone. Over in Europe Democracy Advancing Up Chickamauga Hill Aggie's Song Oh Heart of Love Captain Valentine's Song The Sergeant's Chant The West-Pointer's Song Song of the Goddess Song of the Wounded Frenchmen The Tea Song Oh the Rio Grande Johnny's Dream Song of the Guns Mon Ami, My Friend The Allied High Command The Dance of the Generals. Yes If no player is specified, defaults to the command's executor. If you want to expand or contract in all directions at once (or just horizontal or vertical directions), you can use the //outset and //inset commands. Schroeder was mesmerizing at all times, calling out, cajoling, even hypnotizing in his supremely executed and smooth-as-glass lyrical contours, rendering everything as though improvised. Among all baritone ukuleles, this Cordoba 20BM is one that commands attention time and again. Baritone JON SPONG, Pianist MONDAY EVENING, APRIL 14, 1980, AT 8:30 HILL AUDITORIUM, ANN ARBOR, MICHIGAN PROGRAM Hole's Aria from Titon et I'Aurore JEAN-JOSEPH CASSANEA DE MONDONVILLE At these mortals discharge your lurid bolts, Oh! Thunder! (1711-1772) Arise, angry sea, and at my fierce command Burst all your bonds asunder!. Here is the list of the different game commands available in Minecraft Java Edition (PC/Mac), Pocket Edition (PE), Windows 10 Edition and Education Edition. He set up a mini-bridge at his third command station in. Now firmly established as a Wagnerian name to note, Derek Welton made his first foray into this repertoire as Donner (Das Rheingold) under Richard Farnes at Opera North in 2011. ♪ CONCENTRATE ON SOLID WOOD UKULELE – Caramel 30 inch Baritone Ukeleles are made of ALL SOLID Mahogany wood,which offer the ukulele better sustain, more stable sound and pure tone,also achieve better resonance. Discounts will vary from 10-70% off of retail prices. Posted by 1 year ago. It's a mod. Added a locatebiome command; Commands locatebiome. The Cigar Cutter baritone won't have the "cigar cutter" octave mechanism that gave the Selmers of this era their name. If an achievement is given, all its prerequisites will be given as well. So with that said, let get this party started!. Binnie’s Mods is actually a collection of several different mods, all designs to complement one another and add more and more new content to Minecraft with each additional mod. His greatest achievements were as a producer and band leader on his label Command Records. 53 Peak level 93. Welcome to Full Compass Systems, your Pro Audio, Video, Lighting and Musical Instrument experts. help IRC: # to talk in the IRC Keybind:. 2 seeing as modding is stuck in old MC I refuse to use mods. fabric blog develop discuss use wiki. api : baritone. must be a valid Statistic or achievement name. So my follow up is, is there a way to configure baritone so that it will ignore what information it's being told about the lava and mine what the player sees. La traviata, Royal Opera House, London, review: Joyce El-Khoury commands the stage with radiant authority. help IRC: # to talk in the IRC Keybind:. It was a difficult balance to achieve, knowing that to fail meant deportation or perhaps death. That said, my application for a baritone is much different than the OP's, as I tend to do a lot of surf/spaghetti western flavoured stuff. Here are two free guitar chord chart PDFs that are great for beginners and pros alike. Released by Fresh Sound Records. 4 [auto miner mod] for Minecraft My Udisen Channel (how. would anyone have the list of commands that can do baritone. ; Changes [] Blocks [] Saplings. For God will bring every deed into judgment, including every hidden thing, whether it is good or evil. If true, parkour is allowed to make jumps when standing on blocks at the maximum height, so player feet is y=256. All Chords in Key This section shows you all of the standard chords in the key you've chosen. In a state where vocal recitals are uncommon, a baritone concert is a curate's egg. The guitar is a Halo MERUS 6-string baritone guitar with Bare Knuckle Juggernaut pickups. Mid-Columbia Opera on the Vine and Carousel Concerts Portland present acclaimed Broadway Baritone Douglas Webster and pianist Benjamin Walley in an evening of songs and stories from Opera to Broadway and The Great American Songbook. Simply put, baritone is the range between Tenor and Bass. 2 - watch how to use Auto Miner Minecraft mod or Review Baritone 1. This is a list of the Top 10 Quartets in my opinion. A singer having a voice within this range. 0 will be launching next weekend at exactly: Friday 4th September, 3pm MST. The free Concert with Conversation series features world-class musicians performing in the CMC concert hall. Misty wears a red flannel shirt tied in the front over a black bra, ripped and faded jeans, brown work gloves and brown. must be a valid Statistic or achievement name. Commands for the command block in the Minecraft 1. html # Copyright (C) 2011, 2012, 2014, 2015, 2016 Free Software Foundation, Inc. The ↑ and ↓ keys can be used to view previously entered text, including all previously executed commands. 53 Peak level 93. com/cabaletta/baritone with Fabric support used by Aristois. For example, you could type @thisway 1000 into the chat, followed by @path. Porgy and Bess - opera by George Gershwin, Ira Gershwin and DuBose Heyward - was premiered in Boston in 1935 with Anne Brown and Todd Duncan, Alexander Smallens conducting, and the definitive version was premiered in New York, from there it gradually conquered the world. The singing and acting, however, were of a high standard. School, Animals, People and more to download - Classroom Clipart. "American Command" Anaheim, California, Offered a two piston "G" soprano bugle in 1976 that was designed and built at the Benge facility. (day ploo brie-ont ex-plois) God keep our land glorious and free O Canada, we stand on guard for. Command or perform staff duties in organizations encompassing understanding of combat arms doctrine. A baritone vocalist can sing the lower pitches in the Tenor range, but not the higher pitches. After cloning the repo, install dependencies $ npm install. Here is a list of the percussion instruments assigned to each MIDI note number when using General MIDI Channel 10 (Note these values are offset from 0 rather than 1, so that #60 below is the key for middle-C):. allowOvershootDiagonalDescend. 1909) is a classical opera singer Hitler regarded as "the greatest baritone of the future. " Baritone David Cushing put up an affecting performance as the doddering soldier Donald, the first corpse the pair sold" Madonna - Boston Globe " The victims’ stories were haunting. This is a full–mahogany body build ukulele with great, simplistic aesthetics as well as beyond–impressive performances. Saxophone Baritone Saxophone Alto Sax Duet Alto Sax-Guitar Duet Trumpet & Alto Sax Clarinet & Alto Sax Clarinet & Tenor Sax Alto Sax & Tenor Sax Alto Sax Trio 2 Altos & Tenor-Sax Saxophone Quartet Alto Sax Quartet Alto Saxophone Sheet Music Compilations Funk Studies Sheet Music for Alto Sax Latin & Tango Alto Sax Compilation Traditional British. It is to be mixed into a recital of songs and arias (with two duets: the first is the baritone/tenor duet from Don Carlo). In the client, commands are entered via the chat window, which is displayed by pressing the T key (default) or, in Java Edition, / key. In order to show HUD elements on screen when the GUI is closed, hit the pin in the top left of it. You'll see a list of Baritone commands. Baritone BC: Baritone Bass Clef: Baritone Bass Clef: Baritone Bass Clef: Trombone 1: Commands; Pyware; Other Info; Upcoming Events. Here are the commands that I use the most: #thisway #goal #path #mine diamond_ore. Packages ; Package Description; baritone. A baritone vocalist can sing the lower pitches in the Tenor range, but not the higher pitches. It is only a bot. Space Command was a Canadian children's science fiction television adventure series, broadcast on CBC Television from 13 March 1953 till 29 May 1954, the first time the network aired its own dramatic series. I can give them to myself using the basic /give command, but I can't place them down anywhere. The Impact client is an advanced utility mod for Minecraft, it is packaged with Baritone and includes a large number of useful mods. setbind | or you can middle-click a mod in the GUI. The record is sealed and in great shape!. Baritone is one of the male vocal ranges/parts. View Daniel Rudge’s profile on LinkedIn, the world's largest professional community. Greater Chicago Area. Over in Europe Democracy Advancing Up Chickamauga Hill Aggie's Song Oh Heart of Love Captain Valentine's Song The Sergeant's Chant The West-Pointer's Song Song of the Goddess Song of the Wounded Frenchmen The Tea Song Oh the Rio Grande Johnny's Dream Song of the Guns Mon Ami, My Friend The Allied High Command The Dance of the Generals. That said, my application for a baritone is much different than the OP's, as I tend to do a lot of surf/spaghetti western flavoured stuff. StaffPad is a music notation and composition app designed for handwriting music recognition, touch editing, amazing playback, automatic score layout and realtime parts over WiFi. For example, //outset -v 5 will expand your selection vertically (both up and down) 5 blocks each, while //inset -h 5 will contract your selection horizontally (north, west, south, and east) 5. Baritone is one of the male vocal ranges/parts. Development. binds – List all current keybinds. Barry Gibb: Robin and I fought to the end - but it all means nothing now. However, the baritone voice is determined not only by its vocal range, but also by its timbre, which tends to be darker than that of the typical tenor voice. Sharp HealthCare is San Diego's health care leader with hospitals in San Diego, affiliated medical groups, urgent care centers and a health plan. Educational videos you won’t be embarrassed to show your students. Commands are used through chat, use ;commands for a list of commands. behavior : baritone. Baritone should then start walking forwards for 1000 blocks, like this: NOTE: The prefix for using Baritone commands is @, not #!. Throughout the movie, we heard some pretty powerful quotes. Caramel ukuleles are the instrument of choice for both professional and beginners. Among all baritone ukuleles, this Cordoba 20BM is one that commands attention time and again. One has 144 of the most common chord types in all 12 keys and a smaller version of 132 chords. How to use baritone in a sentence. The baritone voice is typically written in the range from the second A below middle C to the A above middle C (A2-A4) although it can be extended at either end. " Even though Hotter was not a member of the Nazi party and had. Melodramas can be a difficult genre for composers. Being obedient to your vision requires you to listen for instructions and move on what God has said to you by FAITH. There are no currently. api : baritone. View listing photos, review sales history, and use our detailed real estate filters to find the perfect place. Note: If you copy a layer and then create a new document, you can make use of the Clipboard option in the New Document dialog. must be a valid Statistic or achievement name. We’ve compiled a list of the best A Wrinkle In Time quotes. The following commands are restricted to multiplayer servers: /ban, /ban-ip, /banlist, /deop, /kick, /list, /op, /pardon, /pardon-ip, /save-all, /save-off, /save-on, /setidletimeout, /stop, /whitelist. b goto x z, for more questions related to Baritone, please visit their GitHub. I know all the terms seem difficult, I'm just trying to break things down. “Nathan Gunn commands an operatic baritone whose mighty heft and richness confer an outsize authority on everything he touches. So my follow up is, is there a way to configure baritone so that it will ignore what information it's being told about the lava and mine what the player sees. Double-arm keys Dual arms prevent larger key cups from twisting or flexing under pressure and also improve durability. The hack was …. Bass-Baritone at Self, Opera & Concert Singing/Voice Teaching Deputy Chief Of Staff at Naval Service Training Command. Welcome to Full Compass Systems, your Pro Audio, Video, Lighting and Musical Instrument experts. Baritone strings are the same as the first four strings on guitar. The list of features and modules can be found here. 2 % Extraction speed 1. Boulder Creek Riptide Ukulele Acoustic-Electric Baritone all Mahogany Twin Port construction for - Compare prices of 3442 products in Musical Instruments from 53 Online Stores in Australia. Get breaking news, photos, and video of your favorite WWE Superstars. * This file is part of Baritone. Otello is at once a summing up—Falstaff, yet to come, charted different territory—crystallizing all Verdi had learned in nearly fifty years spent in the opera house, and also a work of unexpected vitality and vision. Stefan specializes in lyric baritone roles and is known for his rich and flexible voice and engaging stage presence. If you want to expand or contract in all directions at once (or just horizontal or vertical directions), you can use the //outset and //inset commands. com/cabaletta/baritone with Fabric support used by Aristois. The baritone is one octave lower than the alto. ” Born in 1877 in Pisa as Ruffo Cafiero Titta, he was renowned for his magnificent, hall-filling power and dramatic presence. He would remain “the temporary guy” from 1973 to the groups disbandment after Sumner’s death in 1998. Here is a list of the percussion instruments assigned to each MIDI note number when using General MIDI Channel 10 (Note these values are offset from 0 rather than 1, so that #60 below is the key for middle-C):. Hans Hotter (b. would anyone have the list of commands that can do baritone. (Die Soldaten) for English National Opera (covers), Sharpless (Madama Butterfly) in two Gala performances with Rosalind Plowright as Cio Cio San at Beaulieu Abbey, Dr Bartolo (Il Barbiere di Siviglia) and Angelotti/Sciaronne (Tosca) for Opera and Concert Productions Ltd in the Middle and Far East where he also sang in a Presidential Gala in Kuala Lumpur and a command performance for the Thai. Baritone should then start walking forwards for 1000 blocks, like this: NOTE: The prefix for using Baritone commands is @, not #!. All of this mounts to a premium 4-post chrome rack with non-slip clamps, providing a durable foundation that is easy to set up and move. Opera News described Stefan Gordon as notable among a cast of young, talented singers in his 2009 production of Jerome Kern's the Cabaret Girl. Once a voice talent has been selected, she or he works with our voice development team for several weeks. His extraordinary command of the instrument, blistering technique and interpretive power of his own works and of works of other composers is what made him such an. It was a difficult balance to achieve, knowing that to fail meant deportation or perhaps death. A beautiful baritone sax with plenty of technical upgrades for smooth, responsive sound. He subsequently appeared as Klingsor (Parsifal) at the Beijing Music Festival before joining an all-star cast at Semperoper Dresden for his first Heerrufer (Lohengrin), conducted by Christian Thielemann and. There’s a joke, an argument, a chase, a spaceship battle, or a brutal close-quarters firefight every five minutes, but all. auth – Generates a 6-digit auth code (for donors to log in). In order to show HUD elements on screen when the GUI is closed, hit the pin in the top left of it. damage - Harms yourself in survival. The Impact client is an advanced utility mod for Minecraft, it is packaged with Baritone and includes a large number of useful mods. It allows users to chat across all minecraft servers. The baritone Mark Stone provided stoic strength as Grimes’s friend Captain Balstrode, a voice of reason in the madness. The Moonlight Swing Living History Big Band was established in 1996 as a non-profit historical organization whose chartered mission is to keep the memory and music of Glenn Miller and the Great Big Band Era alive for all to enjoy. You can view a list of past and upcoming changes here. Misty wears a red flannel shirt tied in the front over a black bra, ripped and faded jeans, brown work gloves and brown. If you're using an iMac (Retina 5K, 27-inch, Late 2014) or iMac (27-inch, Late 2013) or iMac (27-inch, Late 2012) with a 3TB hard drive and macOS Mojave or later, learn about an alert you might see during installation. Libretto D. He is a superb actor and his command of pseudo-languages was equally impressive. (The Conversation). In all cases, Photoshop tries to keep at least some piece of the pasted layers visible in the destination document, so that you can reposition it as desired. Now all has been heard; here is the conclusion of the matter: Fear God and keep his commandments, for this is the duty of all mankind. com website. Mr Baritone has concluded his racing career, last running on the 28th Aug 2010 at Caufield. Bass-Baritone at Self, Opera & Concert Singing/Voice Teaching Deputy Chief Of Staff at Naval Service Training Command. Double-arm keys Dual arms prevent larger key cups from twisting or flexing under pressure and also improve durability. The list of features and modules can be found here. Among all baritone ukuleles, this Cordoba 20BM is one that commands attention time and again. ] Doss revealed a sturdy, sizable bass voice and used it with considerable force and imagination. Commands for the command block in the Minecraft 1. You'll see a list of Baritone commands. For example, you could type @thisway 1000 into the chat, followed by @path. It's an interesting horn, with palm keys like a giant early Mark VI soprano, and a thumb octave lever with a leaf spring that is the biggest saxophone spring in history. Trademark for this instrument was "Superhorn of the Seventies. Mr Baritone is yet to break his maiden status, having not won a race yet from 24 attempts. in all thy sons command. Download latest release. Olds N-A30 Marching Baritone was created in the 1970s. A baritone saxophone you'll love playing for years. You can view a list of past and upcoming changes here. Baritone Peter Edge has beautifully rich, ringing tones, admirably employed with a perfect command of Italian in a fine display of comedy, irony and drama in ‘Se vuol ballare’ (Le nozze di Figaro). The free Concert with Conversation series features world-class musicians performing in the CMC concert hall. Sponsored by 2b2t. Baritone Evan Bravos’ performance in the lead role of Inman [Cold Mountain] indicated his career is already moving forward and little wonder; he commands a powerful, rich voice and his acting chops are first-class. The term baritone was developed in relation to classical and operatic voices. * * Baritone is free software: you can redistribute it and/or modify * it under the terms of the GNU Lesser General Public License as published by. Leonard Warren, with his expert command of breath control, legato, and dynamic shading, creates an unforgettable moment of extraordinary beauty and grandeur. Released by Fresh Sound Records. May 23, 2020, 6:07am #2. Out of all the singers here, Dio probably has the most naturally beautiful sound, similar in many ways to an operatic high baritone or low tenor. The following commands are restricted to multiplayer servers: /ban, /ban-ip, /banlist, /deop, /kick, /list, /op, /pardon, /pardon-ip, /save-all, /save-off, /save-on, /setidletimeout, /stop, /whitelist. It is essentially an expansion. The writer behind. 1st Baritone Ty Watson. The list of features and modules can be found here. Obituary: Thomas Hemsley CBE, baritone Born: 12 April, 1927, in Leicestershire. David Cushing, as Donald, sang with a strong, cavernous voice. See the complete profile on LinkedIn and discover Daniel’s connections and jobs at similar companies. Command or perform staff duties in organizations encompassing understanding of combat arms doctrine. It is to be mixed into a recital of songs and arias (with two duets: the first is the baritone/tenor duet from Don Carlo). If the schematic is badly placed, you can cancel it with the command "//undo". Here is the list of the different game commands available in Minecraft Java Edition (PC/Mac), Pocket Edition (PE), Windows 10 Edition and Education Edition. Opera News described Stefan Gordon as notable among a cast of young, talented singers in his 2009 production of Jerome Kern's the Cabaret Girl. 9 % Test CRC DFF5C8EE Copy CRC DFF5C8EE Accurately ripped (confidence 4) [43339D38] (AR v2) Copy OK All tracks accurately ripped No errors occurred End of status report. With a devilish sense of humor, Señor Wooly knows how to tap into the psyche of today’s youth, crafting demented and memorable stories that students will obsess over, absorb, and share with their peers. The baritone is one octave lower than the alto. Command or perform staff duties in organizations encompassing understanding of combat arms doctrine. behavior : baritone. If you want to expand or contract in all directions at once (or just horizontal or vertical directions), you can use the //outset and //inset commands. For example, you could type @thisway 1000 into the chat, followed by @path. Big Band with Vocal group (2 female & 3 male) - 1st Alto doubles Clarinet, Baritone doubles Alto. 50 (Glenn Miller/Modernaires style) Big Band with Vocal group (2 female & 3 male) - 1st Alto doubles Clarinet, Baritone doubles Alto. Adios Muchachos. Once a voice talent has been selected, she or he works with our voice development team for several weeks. The list of features and modules can be found here. 2 this data pack will add for you a lot of new and quite useful features to the outside world, including new fossils, rich ore veins and underground biomes with different types of stones replacing ordinary stone from bedrock to sea level!. s were concerned: Scotti, Ruffo, Pacini and Sammarco were all on the roster of La Scala at his time. vanish command base : Raion. Space Command was a Canadian children's science fiction television adventure series, broadcast on CBC Television from 13 March 1953 till 29 May 1954, the first time the network aired its own dramatic series. A rack with all the tone combos to re create George Harrisons tone with the Beatles between 68 and 70. The default prefix is ;. Barry Gibb: Robin and I fought to the end - but it all means nothing now. During his most recent race at Caufield on 28th Aug 2010, Mr Baritone was ridden by Taylor Lovelock-Wiggins and finished 11th, behind the winner Jungle Ruler. b goto x z, for more questions related to Baritone, please visit their GitHub. Mark Stone as Captain Balstrode kept the night on an even keel with his rugged baritone. After 1915 he joined the ensemble of the Met and remained there as leading br. After she admits that her father is dead, Goro tells Pinkerton that he committed ritual suicide at the Mikado's command. Original Poster 20 points · 1 year ago. Fan-made Adventure Map based on the videogame developed by Sega 20th. He regularly appeared in South America, Spain, England, Russia, Germania and Austria. Useful in creative mode when you’re looking for a specific biome and don’t want to fly around randomly searching for it. We would like to show you a description here but the site won't allow us. 9 % Test CRC DFF5C8EE Copy CRC DFF5C8EE Accurately ripped (confidence 4) [43339D38] (AR v2) Copy OK All tracks accurately ripped No errors occurred End of status report. Artur Rucinski is a musically-engaging baritone, but he’s fatally miscast as. Throughout the movie, we heard some pretty powerful quotes. If there is another client that can achieve this that would also work. The following commands are restricted to multiplayer servers: /ban, /ban-ip, /banlist, /deop, /kick, /list, /op, /pardon, /pardon-ip, /save-all, /save-off, /save-on, /setidletimeout, /stop, /whitelist. Click "Multiplayer Settings" and then move all the sliders to the far left. David Cushing, as Donald, sang with a strong, cavernous voice. It is essentially an expansion. Proudly built with Vessels. Here is the list of the different game commands available in Minecraft Java Edition (PC/Mac), Pocket Edition (PE), Windows 10 Edition and Education Edition. Daniel has 2 jobs listed on their profile. command of orchestral color, ever responsive to mood and meaning; and heightened sensitivity to the frailty of human emotions. He regularly appeared in South America, Spain, England, Russia, Germania and Austria. Baritone definition is - a male singing voice of medium compass between bass and tenor; also : a person having this voice. 4 [auto miner mod] for Minecraft My Udisen Channel (how. In the client, commands are entered via the chat window, which is displayed by pressing the T key (default) or, in Java Edition, / key. The other day, I was playing on an old Minecraft singleplayer map when I encountered an unfortunate problem: I wanted to change some of the map’s gamerules, but I was unable to do so because cheats were disabled. Now go where you want to place the schematic and paste it with the command "//paste". # Polish translation of http://www. allowJumpAt256. There is this program called Baritone that is basically a bot that does stuff for you. I checked all of the configuration files I could find to make sure that command blocks are enabled (which they are), but I still can't place command blocks. # Polish translation of http://www. This second release of star baritone Dmitri Hvorostovsky for Ondine features Russian Lieder by Tchaikovsky, Mussorgsky and Taneyev. May 23, 2020, 6:07am #2. See the complete profile on LinkedIn and discover Daniel’s connections and jobs at similar companies. His account of The trumpet shall sound contained triumphant flourishes…”. Must be specified if in a command block. command of orchestral color, ever responsive to mood and meaning; and heightened sensitivity to the frailty of human emotions. com website. com/cabaletta/baritone with Fabric support used by Aristois. Grice’s Ephraimite was – for all his modest contrary interjections – something special” Roderic Dunnett, July 2014 “Daniel Grice proves a very fine actor as Schaunard” MusicOMH, July 2014 “Daniel Grice a very well-turned Schaunard” Guardian, July 2014. "For the last 21 years of his life, he never sang or performed again. It is in no way a hacked client because it doesn't modify or give advantages in-game. Includes performance schedules for the main Concert-Ceremonial unit and four specialty groups: the Sea Chanters chorus, the Commodores jazz ensemble, the Country Current country-bluegrass group and the Cruisers rock ensemble. One more option for your online shopping. Once a voice talent has been selected, she or he works with our voice development team for several weeks. Grammy-nominated Baritone Anthony Michaels-Moore is the first British winner of the Luciano Pavarotti International Voice Competition (Philadelphia, 1985) and has since appeared regularly at many of the world's top opera houses, and recorded and performed concert repertoire with many of the world’s leading orchestras and conductors of note. The baritone is one octave lower than the alto. setbind | or you can middle-click a mod in the GUI. If the usage. 1909) is a classical opera singer Hitler regarded as "the greatest baritone of the future. Prison Release Date: Prison Season 8. Now all has been heard; here is the conclusion of the matter: Fear God and keep his commandments, for this is the duty of all mankind.